Nowe posty

Autor Wątek: WinFF  (Przeczytany 11505 razy)

Offline

  • Users
  • Użytkownik
  • **
  • Wiadomości: 64
    • Zobacz profil
WinFF
« dnia: 2013-06-15, 14:08:37 »
Próbuję konwersji pliku FLV do 3GP za pomocą WinFF.
Spotykam jednak problemy
\\033]0; Konwertowanie Classic german scene with 2 schoolgirls getting fucked.flv (1/1)\\007FFmpeg version 0.6.5, Copyright (c) 2000-2010 the Libav developers
  built on Jan 31 2013 05:48:59 with gcc 4.7.2 20121109 (Red Hat 4.7.2-8)
  configuration: --prefix=/usr --libdir=/usr/lib --shlibdir=/usr/lib --mandir=/usr/share/man --enable-shared --enable-gpl --enable-version3 --disable-nonfree --enable-postproc --enable-avfilter --enable-pthreads --enable-x11grab --enable-vdpau --extra-cflags='-O2 -g -pipe -Wall -Wp,-D_FORTIFY_SOURCE=2 -fexceptions -fstack-protector --param=ssp-buffer-size=4 -m32 -march=i686 -mtune=atom -fasynchronous-unwind-tables' --enable-debug
  libavutil     50.15. 1 / 50.15. 1
  libavcodec    52.72. 2 / 52.72. 2
  libavformat   52.64. 2 / 52.64. 2
  libavdevice   52. 2. 0 / 52. 2. 0
  libavfilter    1.19. 0 /  1.19. 0
  libswscale     0.11. 0 /  0.11. 0
  libpostproc   51. 2. 0 / 51. 2. 0
[flv @ 0x908d420]Estimating duration from bitrate, this may be inaccurate

Seems stream 0 codec frame rate differs from container frame rate: 1000.00 (1000/1) -> 25.00 (25/1)
Input #0, flv, from '/home/piotrek/Wideo/Teens/Classic german scene with 2 schoolgirls getting fucked.flv':
  Metadata:
    hasKeyframes    : true
    audiodatarate   : 64
    hasVideo        : true
    stereo          : true
    canSeekToEnd    : false
    framerate       : 25
    audiosamplerate : 22000
    videocodecid    : 4
    datasize        : 29359990
    lasttimestamp   : 502
    audiosamplesize : 16
    audiosize       : 4247448
    hasAudio        : true
    audiodelay      : 0
    videosize       : 25107802
    metadatacreator : inlet media FLVTool2 v1.0.6 - http://www.inlet-media.de/flvtool2
    lastkeyframetimestamp: 498
    height          : 360
    filesize        : 29487087
    hasMetadata     : true
    audiocodecid    : 2
    videodatarate   : 398
    duration        : 502
    hasCuePoints    : false
    width           : 528
  Duration: 00:08:21.96, start: 0.000000, bitrate: 471 kb/s
    Stream #0.0: Video: vp6f, yuv420p, 528x368, 407 kb/s, 25 tbr, 1k tbn, 1k tbc
    Stream #0.1: Audio: mp3, 22050 Hz, 2 channels, s16, 64 kb/s
Unrecognized option 'b:v'
Naciśnij Enter by kontynuować
Wciskam Enter no i nie działa :/
Wszelkie sugestie mile widziane.
System Fedora 18.
Lenovo B590

Offline 1709

  • Users
  • Guru
  • *****
  • Wiadomości: 2153
  • 1709
    • Zobacz profil
WinFF
« Odpowiedź #1 dnia: 2013-06-16, 23:17:48 »
http://video.online-convert.com/convert-to-3gp
A jakby czyms takim lub podobnym?
Pochwal się swoją kartą graficzną w tym wątku-->
http://forum.linux.pl/index.php/topic,19841.msg121122.html#msg121122

Offline vanhelzing

  • Users
  • Prawie jak Guru
  • ****
  • Wiadomości: 313
    • Zobacz profil
WinFF
« Odpowiedź #2 dnia: 2013-06-19, 01:19:57 »
Może podaj parametry z którymi uruchamiasz program, bo akurat Twoja filmoteka jest najmniej istotna.

Offline

  • Users
  • Użytkownik
  • **
  • Wiadomości: 64
    • Zobacz profil
WinFF
« Odpowiedź #3 dnia: 2013-06-22, 19:58:22 »
Parametry domyślne, wybieram konwertowanie na 3gp (mobile phone)